Auto Plus France – 6 avril 2018
999 Nụ Hôn Bá Đạo Của Nam Thần – Chap 11
Loading...
Loading...

ExtraTorrent

Login   |   Register   |   Home
Browse Torrents
| Search Cloud | | | | FAQ  
» » Peter Rabbit 2018 READ INFO 720p WEB-DL H264 AC3 LLG

Download Peter Rabbit 2018 READ INFO 720p WEB-DL H264 AC3 LLG extratorrent


Download torrent: Download Magnet Peter Rabbit 2018 READ INFO 720p WEB-DL H264 AC3 LLG
Info hash 1E91E2DD42BC86FCE0CC8BC54532BD98F63BC8BF
Torrent ID13746571
Comments: Sort Read Comments
Category: Movies
Health:
 Seeders: 62 |  Leechers: 799 |  Completed: 3440
Torrent language: English English
Total Size: 894.8 MB
Uploader: LifeLongg Trusted Uploader Site Friend Superman Sun
Torrent added: 16-04-2018, 21:20:04
Views: 44


Extratorrent Download Torrent http://www.youtube.com/results
http://www.youtube.com/results

******************************Thumbnail:********************** ******************************Screenshots:******************** Screenshot 1 Screenshot 2 Screenshot 3 Screenshot 4 Screenshot 5 Screenshot 6 Screenshot 7 Screenshot 8 Screenshot 9 Screenshot 0 ************************************************************** Note :Clear Cam audio Complete name : Peter.Rabbit..2018.READ.INFO.720p.WEB-DL.H264.AC3.LLG.mp4 Format : MPEG-4 Format profile : Base Media Codec ID : isom (isom/iso2/avc1/mp41) File size : 884 MiB Duration : 1 h 34 min Overall bit rate : 1 306 kb/s Writing application : Lavf57.56.101 Video ID : 1 Format : AVC Format/Info : Advanced Video Codec Format profile : [email protected] Format settings : CABAC / 4 Ref Frames Format settings, CABAC : Yes Format settings, RefFrames : 4 frames Codec ID : avc1 Codec ID/Info : Advanced Video Coding Duration : 1 h 34 min Bit rate : 1 200 kb/s Width : 1 280 pixels Height : 530 pixels Display aspect ratio : 2.40:1 Frame rate mode : Constant Frame rate : 29.970 (29970/1000) FPS Color space : YUV Chroma subsampling : 4:2:0 Bit depth : 8 bits Scan type : Progressive Bits/(Pixel*Frame) : 0.059 Stream size : 794 MiB (90%) Audio ID : 2 Format : AC-3 Format/Info : Audio Coding 3 Codec ID : ac-3 Duration : 1 h 34 min Bit rate mode : Constant Bit rate : 128 kb/s Channel(s) : 2 channels Channel positions : Front: L R Sampling rate : 48.0 kHz Frame rate : 31.250 FPS (1536 SPF) Bit depth : 16 bits Compression mode : Lossy Stream size : 86.6 MiB (10%) Language : English Service kind : Complete Main Default : Yes Alternate group : 1


 

Related Torrents




Recent Searches

Home - Browse Torrents - Upload Torrent - Recent Torrents - Login - Register - FAQ
BitCoin:coming soon
Can't load ExtraTorrents.rip
2006-2017 ExtraTorrents.rip