Скачать mp3
Scott Eastwood
Loading...

ExtraTorrent

Login   |   Register   |   Home
Browse Torrents
| Search Cloud | | | | FAQ  
» » My Daddy Is In Heaven 2017 Movies 720p HDRip x264 5 1 with Sample ☻rDX☻

Download My Daddy Is In Heaven 2017 Movies 720p HDRip x264 5 1 with Sample ☻rDX☻ extratorrent


Download torrent: Download Magnet My Daddy Is In Heaven 2017 Movies 720p HDRip x264 5 1 with Sample ☻rDX☻
Info hash 8F889F95DC0C6E7F7F965088EB8355884586A0F2
Torrent ID13746335
Comments: Sort Read Comments
Category: Movies
Health:
 Seeders: 1 |  Leechers: n/a |  Completed: 19
Torrent language: English English
Total Size: 900.7 MB
Uploader: nehalpuja Trusted Uploader Site Friend Superman Sun
Torrent added: 16-04-2018, 16:35:03
Views: 40


Extratorrent Download Torrent KAT - Kickass Torrents
http://kickass.tw
Watch32 - Watch Full Free Movies …
http://watch32.as
PrimeWire | LetMeWatchThis - Watch …
http://www.primewire.fm
Watch32 - Watch Movies Online Free …
www.watch32.la

My Daddy Is In Heaven 2017 Movies 720p HDRip x264 5.1 with Sample ☻rDX☻ =============================================================================================== SCREEN SHOTS: or http://iphonehosting.eu/2018/4/business/1.html File size : 892 MiB Duration : 1 h 35 min Overall bit rate : 1 309 kb/s Movie name : My Daddy Is In Heaven 2017 Movies 720p HDRip x264 5.1 ☻rDX☻ Video ID : 2 Format : AVC Format/Info : Advanced Video Codec Format profile : [email protected] Format settings, CABAC : Yes Format settings, ReFrames : 4 frames Codec ID : V_MPEG4/ISO/AVC Duration : 1 h 35 min Bit rate : 924 kb/s Width : 1 280 pixels Height : 720 pixels Display aspect ratio : 16:9 Frame rate mode : Constant Frame rate : 23.976 (24000/1001) FPS Color space : YUV Chroma subsampling : 4:2:0 Bit depth : 8 bits Scan type : Progressive Bits/(Pixel*Frame) : 0.042 Stream size : 612 MiB (69%) Title : ☻rDX☻ Writing library : x264 Audio ID : 1 Format : AC-3 Format/Info : Audio Coding 3 Mode extension : CM (complete main) Format settings, Endianness : Big Codec ID : A_AC3 Duration : 1 h 35 min Bit rate mode : Constant Bit rate : 384 kb/s Channel(s) : 6 channels Channel positions : Front: L C R, Side: L R, LFE Sampling rate : 48.0 kHz Frame rate : 31.250 FPS (1536 spf) Bit depth : 16 bits Compression mode : Lossy Delay relative to video : -42 ms Stream size : 262 MiB (29%) Title : ☻rDX☻ Default : Yes Forced : No IMDB : http://www.imdb.com/title/tt6460276


 

Related Torrents




Recent Searches

Home - Browse Torrents - Upload Torrent - Recent Torrents - Login - Register - FAQ
BitCoin:coming soon
Can't load ExtraTorrents.rip
2006-2017 ExtraTorrents.rip