Read Post
2 K GTA 5 / Grand Theft Auto V [v 1.0.1180.1] (2015) PC | RePack от SE7EN
Loading...

ExtraTorrent

Login   |   Register   |   Home
Browse Torrents
| Search Cloud | | | | FAQ  
» » 18+ Wildling 2018 HDRip XviD AC3 With Sample LLG

Download 18+ Wildling 2018 HDRip XviD AC3 With Sample LLG extratorrent


Download torrent: Download Magnet 18+ Wildling 2018 HDRip XviD AC3 With Sample LLG
Info hash A44860ED5791F98582D31A952A14F92C2B39A478
Torrent ID13746253
Comments: Sort Read Comments
Category: Movies
Health:
 Seeders: 7 |  Leechers: 6 |  Completed: 233
Torrent language: English English
Total Size: 993.7 MB
Uploader: LifeLongg Trusted Uploader Site Friend Superman Sun
Torrent added: 16-04-2018, 15:15:04
Views: 35


Extratorrent Download Torrent [한글] 지금부터 들려줄게 록샌의 이야기 …
www.totoria.org/bbs/board.php?bo_table=torrent_movie_eng&wr_id=20273
Download Latest Movies Torrent - …
http://kickasstorrents3.xyz/Movies
[한글] 그레이트 월 The Great Wall 2016 …
totoria.org/bbs/board.php?bo_table=torrent_movie_eng&wr_id=13489
Today Added Torrents - …
http://extratorrents.unblockall.org/today

******************************Thumbnail:********************** ******************************Screenshots:******************** Screenshot 1 Screenshot 2 Screenshot 3 Screenshot 4 Screenshot 5 Screenshot 6 Screenshot 7 Screenshot 8 Screenshot 9 Screenshot 0 ************************************************************** Complete name : 18+.Wildling.2018.HDRip.XviD.AC3.With.Sample.LLG.mp4 Format : MPEG-4 Format profile : Base Media Codec ID : isom (isom/iso2/avc1/mp41) File size : 961 MiB Duration : 1 h 32 min Overall bit rate : 1 452 kb/s Writing application : Lavf57.56.101 Video ID : 1 Format : AVC Format/Info : Advanced Video Codec Format profile : [email protected] Format settings : CABAC / 4 Ref Frames Format settings, CABAC : Yes Format settings, RefFrames : 4 frames Codec ID : avc1 Codec ID/Info : Advanced Video Coding Duration : 1 h 32 min Bit rate : 1 200 kb/s Width : 720 pixels Height : 304 pixels Display aspect ratio : 2.35:1 Frame rate mode : Constant Frame rate : 23.976 (23976/1000) FPS Color space : YUV Chroma subsampling : 4:2:0 Bit depth : 8 bits Scan type : Progressive Bits/(Pixel*Frame) : 0.229 Stream size : 788 MiB (82%) Audio ID : 2 Format : AC-3 Format/Info : Audio Coding 3 Codec ID : ac-3 Duration : 1 h 32 min Bit rate mode : Constant Bit rate : 256 kb/s Channel(s) : 6 channels Channel positions : Front: L C R, Side: L R, LFE Sampling rate : 48.0 kHz Frame rate : 31.250 FPS (1536 SPF) Bit depth : 16 bits Compression mode : Lossy Stream size : 169 MiB (18%) Service kind : Complete Main Default : Yes Alternate group : 1


 

Related Torrents
Browse Movies Torrents Related Torrents added recently in our database RSS  
Added  Size  Sort S  Sort L  Sort Health
Download Magnet English  Bill_2015_720p_BluRay_x264-GETiT[EtHD] in Movies, by EtHD 1 minute 4.4 GB 7769 46923
Download Magnet English  12_Strong_2018_1080p_BRRip_1_9_GB_-_iExTV in Movies, by amarK 1 minute 1.9 GB 82948 94708
Download Magnet English  Ex_on_the_Beach_US_S01E01_720p_WEB_x264-TBS[TGx] in TV, by mazemaze16 6 minutes 936.2 MB 71926 20510
Download Magnet English  Ex_on_the_Beach_US_S01E01_WEB_x264-TBS[ettv] in TV, by ETTV 6 minutes 634.2 MB 70709 42415
Download Magnet English  Ex_on_the_Beach_US_S01E01_WEB_x264-TBS[TGx] in TV, by mazemaze16 6 minutes 634.2 MB 3931 28061
Download Magnet English  Stephen_Colbert_2018_04_19_Antonio_Banderas_720p_WEB_x264-TB___ in TV, by EZTVag 6 minutes 917.7 MB 35651 91701
Download Magnet English  Imposters_S02E03_WEBRip_x264-PBS[eztv] in TV, by EZTVag 6 minutes 386.7 MB 32311 99692
Download Magnet English  Ex_on_the_Beach_US_S01E01_WEB_x264-TBS[eztv] in TV, by EZTVag 6 minutes 634.2 MB 38484 38336
Download Magnet English  Wheel_of_Fortune_2018_04_19_720p_HDTV_x264-NTb[eztv] in TV, by EZTVag 16 minutes 634.6 MB 75980 90813
Download Magnet English  James_Corden_2018_04_19_Busy_Philipps_720p_WEB_x264-TBS[eztv___ in TV, by EZTVag 16 minutes 892.3 MB 25952 93285




Recent Searches

Home - Browse Torrents - Upload Torrent - Recent Torrents - Login - Register - FAQ
BitCoin:coming soon
Can't load ExtraTorrents.rip
2006-2017 ExtraTorrents.rip