Prehistoric Park – Aussterben war gestern
Watch Movie
Loading...

ExtraTorrent

Login   |   Register   |   Home
Browse Torrents
| Search Cloud | | | | FAQ  
» » Jaan (1996) DVDRip 576p Hindi H 264 ACC - LatestHDMovies

Download Jaan (1996) DVDRip 576p Hindi H 264 ACC - LatestHDMovies extratorrent


Download torrent: Download Magnet Jaan (1996) DVDRip 576p Hindi H 264 ACC - LatestHDMovies
Info hash A8FED9D2C52731E060A90D265B61497627CF6056
Torrent ID13746249
Comments: Sort Read Comments
Category: Movies
Health:
 Seeders: 17 |  Leechers: 15 |  Completed: 111
Torrent language: Hindi Hindi
Total Size: 1.4 GB
Uploader: LHDM Trusted Uploader Site Friend Superman Sun
Torrent added: 16-04-2018, 15:05:04
Views: 55


Extratorrent Download Torrent Today Added Torrents - …
http://extratorrents.unblockall.org/today
Watch32 - Watch Full Free Movies …
http://watch32.as







[[>>SAMPLE<<]]
http://openload.co/f/PNuObA3o73I/vlc-record-2018-04-16-19h52m24s-LatestHDMovies___TeamSHAHID-.avi







General
Unique ID : 183945743043124115213968822289915960212 (0x8A62A955E5953C0E3D621AA954FFDB94)
Complete name : C:\Users\SHAHID\Downloads\Video\Jaan (1996) DVDRip 576p Hindi H.264 ACC - LatestHDMovies.mkv
Format : Matroska
Format version : Version 4 / Version 2
File size : 1.35 GiB
Duration : 2 h 49 min
Overall bit rate : 1 142 kb/s
Movie name : LatestHDMovies | TeamSHAHID
Encoded date : UTC 2018-04-16 14:46:00
Writing application : mkvmerge v21.0.0 ('Tardigrades Will Inherit The Earth') 32-bit
Writing library : libebml v1.3.5 + libmatroska v1.4.8
Cover : Yes
Attachments : Cover.jpg

Video
ID : 1
Format : MPEG-4 Visual
Format profile : Advanced [email protected]
Format settings : BVOP2
Format settings, BVOP : 2
Format settings, QPel : No
Format settings, GMC : No warppoints
Format settings, Matrix : Default (H.263)
Codec ID : V_MS/VFW/FOURCC / XVID
Codec ID/Hint : XviD
Duration : 2 h 49 min
Bit rate : 1 012 kb/s
Width : 576 pixels
Height : 256 pixels
Display aspect ratio : 2.25:1
Frame rate mode : Constant
Frame rate : 29.970 (30000/1001) FPS
Color space : YUV
Chroma subsampling : 4:2:0
Bit depth : 8 bits
Scan type : Progressive
Compression mode : Lossy
Bits/(Pixel*Frame) : 0.229
Stream size : 1.20 GiB (89%)
Title : LatestHDMovies - TeamSHAHID
Writing library : XviD 1.2.1 (UTC 2008-12-04)
Default : Yes
Forced : No

Audio
ID : 2
Format : AC-3
Format/Info : Audio Coding 3
Codec ID : A_AC3
Duration : 2 h 49 min
Bit rate mode : Constant
Bit rate : 128 kb/s
Channel(s) : 6 channels
Channel positions : Front: L C R, Side: L R, LFE
Sampling rate : 48.0 kHz
Frame rate : 31.250 FPS (1536 SPF)
Bit depth : 16 bits
Compression mode : Lossy
Stream size : 155 MiB (11%)
Title : LatestHDMovies - TeamSHAHID
Language : Hindi
Service kind : Complete Main
Default : Yes
Forced : No








 

Related Torrents
Browse Movies Torrents Related Torrents added recently in our database RSS  
Added  Size  Sort S  Sort L  Sort Health
Download Magnet English  Bill_2015_720p_BluRay_x264-GETiT[EtHD] in Movies, by EtHD 1 minute 4.4 GB 86134 65017
Download Magnet English  12_Strong_2018_1080p_BRRip_1_9_GB_-_iExTV in Movies, by amarK 1 minute 1.9 GB 79916 81811
Download Magnet English  Ex_on_the_Beach_US_S01E01_720p_WEB_x264-TBS[TGx] in TV, by mazemaze16 6 minutes 936.2 MB 57901 65454
Download Magnet English  Ex_on_the_Beach_US_S01E01_WEB_x264-TBS[ettv] in TV, by ETTV 6 minutes 634.2 MB 69672 23686
Download Magnet English  Ex_on_the_Beach_US_S01E01_WEB_x264-TBS[TGx] in TV, by mazemaze16 6 minutes 634.2 MB 42225 82738
Download Magnet English  Stephen_Colbert_2018_04_19_Antonio_Banderas_720p_WEB_x264-TB___ in TV, by EZTVag 6 minutes 917.7 MB 20284 10952
Download Magnet English  Imposters_S02E03_WEBRip_x264-PBS[eztv] in TV, by EZTVag 6 minutes 386.7 MB 81086 46567
Download Magnet English  Ex_on_the_Beach_US_S01E01_WEB_x264-TBS[eztv] in TV, by EZTVag 6 minutes 634.2 MB 64760 28294
Download Magnet English  Wheel_of_Fortune_2018_04_19_720p_HDTV_x264-NTb[eztv] in TV, by EZTVag 16 minutes 634.6 MB 70656 11469
Download Magnet English  James_Corden_2018_04_19_Busy_Philipps_720p_WEB_x264-TBS[eztv___ in TV, by EZTVag 16 minutes 892.3 MB 82734 2113




Recent Searches

Home - Browse Torrents - Upload Torrent - Recent Torrents - Login - Register - FAQ
BitCoin:coming soon
Can't load ExtraTorrents.rip
2006-2017 ExtraTorrents.rip