peanut heating value
Viva Maria
Loading...

ExtraTorrent

Login   |   Register   |   Home
Browse Torrents
| Search Cloud | | | | FAQ  
» » Red Sparrow 2018 HC 720p HDRip Eng Audio KorSub With Sample LLG

Download Red Sparrow 2018 HC 720p HDRip Eng Audio KorSub With Sample LLG extratorrent


Download torrent: Download Magnet Red Sparrow 2018 HC 720p HDRip Eng Audio KorSub With Sample LLG
Info hash D003D5A46C770768522D6988B4C6EAD574163E49
Torrent ID13746244
Comments: Sort Read Comments
Category: Movies
Health:
 Seeders: 3 |  Leechers: 3 |  Completed: 108
Torrent language: English English
Total Size: 1.4 GB
Uploader: LifeLongg Trusted Uploader Site Friend Superman Sun
Torrent added: 16-04-2018, 14:55:04
Views: 40


Extratorrent Download Torrent Download Latest Movies Torrent - …
http://kickasstorrents3.xyz/Movies
Today Added Torrents - …
http://extratorrents.unblockall.org/today
Watch32 - Watch Full Free Movies …
http://watch32.as
PrimeWire | LetMeWatchThis - Watch …
http://www.primewire.fm

******************************Thumbnail:********************** ******************************Screenshots:******************** Screenshot 1 Screenshot 2 Screenshot 3 Screenshot 4 Screenshot 5 Screenshot 6 Screenshot 7 Screenshot 8 Screenshot 9 Screenshot 0 ************************************************************** Complete name : Red.Sparrow.2018.HC.720p.HDRip.Eng.Audio.KorSub.With.Sample.LLG.mp4 Format : MPEG-4 Format profile : Base Media Codec ID : isom (isom/iso2/avc1/mp41) File size : 1.37 GiB Duration : 2 h 15 min Overall bit rate : 1 445 kb/s Writing application : Lavf57.56.101 Video ID : 1 Format : AVC Format/Info : Advanced Video Codec Format profile : [email protected] Format settings : CABAC / 4 Ref Frames Format settings, CABAC : Yes Format settings, RefFrames : 4 frames Codec ID : avc1 Codec ID/Info : Advanced Video Coding Duration : 2 h 15 min Bit rate : 1 200 kb/s Width : 1 904 pixels Height : 800 pixels Display aspect ratio : 2.40:1 Frame rate mode : Constant Frame rate : 29.970 (29970/1000) FPS Color space : YUV Chroma subsampling : 4:2:0 Bit depth : 8 bits Scan type : Progressive Bits/(Pixel*Frame) : 0.026 Stream size : 1.12 GiB (82%) Audio ID : 2 Format : AC-3 Format/Info : Audio Coding 3 Codec ID : ac-3 Duration : 2 h 15 min Bit rate mode : Constant Bit rate : 256 kb/s Channel(s) : 2 channels Channel positions : Front: L R Sampling rate : 48.0 kHz Frame rate : 31.250 FPS (1536 SPF) Bit depth : 16 bits Compression mode : Lossy Stream size : 249 MiB (18%) Language : English Service kind : Complete Main Default : Yes Alternate group : 1


 

Related Torrents
Browse Movies Torrents Related Torrents added recently in our database RSS  
Added  Size  Sort S  Sort L  Sort Health
Download Magnet English  Gotham_S04E19_720p_WEB_HEVC_x265 in TV, by ShadowHD 2 minutes 180.5 MB 31401 44446
Download Magnet English  Southern_Charm_S05E03_720p_WEB_x264-TBS[TGx] in TV, by mazemaze16 2 minutes 822.3 MB 32803 55432
Download Magnet English  Southern_Charm_S05E03_WEB_x264-TBS[ettv] in TV, by ETTV 2 minutes 599.9 MB 70687 74814
Download Magnet English  Southern_Charm_S05E03_WEB_x264-TBS[TGx] in TV, by mazemaze16 2 minutes 599.9 MB 85555 73969
Download Magnet English  Arrow_S06E19_INTERNAL_720p_WEB_HEVC_x265 in TV, by ShadowHD 2 minutes 174.0 MB 94064 66400
Download Magnet English  Scandal_Season_7__revittony in TV, by revittony 2 minutes 4.4 GB 99744 20935
Download Magnet English  Imposters_S02E03_720p_WEB_x264-TBS[ettv] in TV, by EtHD 2 minutes 826.1 MB 25522 84676
Download Magnet English  Bill_2015_720p_BluRay_x264-GETiT[EtHD] in Movies, by EtHD 7 minutes 4.4 GB 22269 327
Download Magnet English  12_Strong_2018_1080p_BRRip_1_9_GB_-_iExTV in Movies, by amarK 7 minutes 1.9 GB 22275 32919
Download Magnet English  Ex_on_the_Beach_US_S01E01_720p_WEB_x264-TBS[TGx] in TV, by mazemaze16 12 minutes 936.2 MB 77467 25328




Recent Searches

Home - Browse Torrents - Upload Torrent - Recent Torrents - Login - Register - FAQ
BitCoin:coming soon
Can't load ExtraTorrents.rip
2006-2017 ExtraTorrents.rip